DTPASTE

Subiendo Calidad!

   

The Umbrella Academy (2020) Temporada 2 Web-DL 1080p Trial FREE

1 2 3 . Opcion 1 o Opcion 2
4 5 6 . Opcion 1 o Opcion 2
7 8 9 10 . Opcion 1 o Opcion 2



LINKS MEGA PARA JDOWNLOADER O MIPONY, COPIAR Y PEGAR AL GESTOR
1. https://tii.ai/Xmja2huj
2. https://ouo.io/e7Y8OE
3. https://short.pe/YZ8XsC
4. https://short.pe/kq6Br
5. https://megaup.net/2U0hB/The_Umbrella_Academy_(2020)_S02E05_Web-DL_1080p_Descargatelotodo.mkv
6. https://megaup.net/1y5nl/The_Umbrella_Academy_(2020)_S02E06_Web-DL_1080p_Descargatelotodo.mkv
7. https://megaup.net/1y5n7/The_Umbrella_Academy_(2020)_S02E07_Web-DL_1080p_Descargatelotodo.mkv
8. https://megaup.net/1y5no/The_Umbrella_Academy_(2020)_S02E08_Web-DL_1080p_Descargatelotodo.mkv
9. https://megaup.net/2e2Q5/The_Umbrella_Academy_(2020)_S02E09_Web-DL_1080p_Descargatelotodo.mkv
10. https://megaup.net/2U0ii/The_Umbrella_Academy_(2020)_S02E10_Web-DL_1080p_Descargatelotodo.mkv
1Fichier
1. https://short.pe/2lV5n
2. https://tii.ai/eNQ5fiJP
3. https://ouo.io/I0zADj
4. https://short.pe/7Fs54j
5. https://1fichier.com/?kk0ge12ujafmg8tsr0dz
6. https://1fichier.com/?jdw8vwzwkmsypjamsi78
7. https://1fichier.com/?108yaphzbsxotv0pczem
8. https://1fichier.com/?3qdi6hff7r80jeh8skkk
9. https://1fichier.com/?38yk0g8u51tle9qetgto
10. https://1fichier.com/?zrh85ufo0sg5w5t9f80q

Uptobox
1. https://short.pe/tU7klo
2. https://short.pe/totgv
3. https://tii.ai/om68fdu9
4. https://ouo.io/jXvQ6i
5. https://uptobox.com/ismfib28lc91/The Umbrella Academy (2020) S02E05 Web-DL 1080p Descargatelotodo.mkv
6. https://uptobox.com/fhhmz9ij8d7d/The Umbrella Academy (2020) S02E06 Web-DL 1080p Descargatelotodo.mkv
7. https://uptobox.com/6ef4sh22eo6r/The Umbrella Academy (2020) S02E07 Web-DL 1080p Descargatelotodo.mkv
8. https://uptobox.com/tqbj7viut9fh/The Umbrella Academy (2020) S02E08 Web-DL 1080p Descargatelotodo.mkv
9. https://uptobox.com/fmm0h7s7svmu/The Umbrella Academy (2020) S02E09 Web-DL 1080p Descargatelotodo.mkv
10. https://uptobox.com/ryx71673sdz1/The Umbrella Academy (2020) S02E10 Web-DL 1080p Descargatelotodo.mkv
Video
ID : 1
Format : AVC
Format/Info : Advanced Video Codec
Format profile : High@L4
Format settings : CABAC / 4 Ref Frames
Format settings, CABAC : Yes
Format settings, Reference fra : 4 frames
Codec ID : V_MPEG4/ISO/AVC
Duration : 47 min 0 s
Bit rate mode : Variable
Bit rate : 6 628 kb/s
Maximum bit rate : 20.0 Mb/s
Width : 1 920 pixels
Height : 1 080 pixels
Display aspect ratio : 16:9
Frame rate mode : Constant
Frame rate : 23.976 (24000/1001) FPS
Color space : YUV
Chroma subsampling : 4:2:0
Bit depth : 8 bits
Scan type : Progressive
Bits/(Pixel*Frame) : 0.133
Stream size : 2.18 GiB (82%)
Writing library : x264 core 148 r2722 1b0121b
Encoding settings : cabac=1 / ref=4 / deblock=1:0:0 / analyse=0x3:0x111 / me=umh / subme=10 / psy=1 / psy_rd=1.00:0.00 / mixed_ref=1 / me_range=120 / chroma_me=1 / trellis=2 / 8x8dct=1 / cqm=0 / deadzone=21,11 / fast_pskip=1 / chroma_qp_offset=-2 / threads=8 / lookahead_threads=2 / sliced_threads=0 / nr=0 / decimate=1 / interlaced=0 / bluray_compat=0 / stitchable=1 / constrained_intra=0 / bframes=16 / b_pyramid=2 / b_adapt=2 / b_bias=0 / direct=3 / weightb=1 / open_gop=0 / weightp=2 / keyint=240 / keyint_min=121 / scenecut=0 / intra_refresh=0 / rc_lookahead=240 / rc=crf / mbtree=1 / crf=16.0 / qcomp=0.50 / qpmin=6 / qpmax=51 / qpstep=4 / vbv_maxrate=20000 / vbv_bufsize=25000 / crf_max=0.0 / nal_hrd=vbr / filler=0 / ip_ratio=1.40 / aq=1:0.80
Default : Yes
Forced : No

Audio #1
ID : 2
Format : AC-3
Format/Info : Audio Coding 3
Commercial name : Dolby Digital
Codec ID : A_AC3
Duration : 47 min 1 s
Bit rate mode : Constant
Bit rate : 384 kb/s
Channel(s) : 6 channels
Channel layout : L R C LFE Ls Rs
Sampling rate : 48.0 kHz
Frame rate : 31.250 FPS (1536 SPF)
Compression mode : Lossy
Stream size : 129 MiB (5%)
Title : Latino Netflix
Language : Spanish
Service kind : Complete Main
Default : Yes
Forced : Yes

Audio #2
ID : 3
Format : AC-3
Format/Info : Audio Coding 3
Commercial name : Dolby Digital
Codec ID : A_AC3
Duration : 47 min 1 s
Bit rate mode : Constant
Bit rate : 384 kb/s
Channel(s) : 6 channels
Channel layout : L R C LFE Ls Rs
Sampling rate : 48.0 kHz
Frame rate : 31.250 FPS (1536 SPF)
Compression mode : Lossy
Stream size : 129 MiB (5%)
Title : Castellano Netflix
Language : Spanish
Service kind : Complete Main
Default : No
Forced : No

Audio #3
ID : 4
Format : E-AC-3
Format/Info : Enhanced AC-3
Commercial name : Dolby Digital Plus
Codec ID : A_EAC3
Duration : 47 min 1 s
Bit rate mode : Constant
Bit rate : 640 kb/s
Channel(s) : 6 channels
Channel layout : L R C LFE Ls Rs
Sampling rate : 48.0 kHz
Frame rate : 31.250 FPS (1536 SPF)
Compression mode : Lossy
Stream size : 215 MiB (8%)
Title : English
Language : English
Service kind : Complete Main
Default : No
Forced : No

Text #1
ID : 5
Format : UTF-8
Codec ID : S_TEXT/UTF8
Codec ID/Info : UTF-8 Plain Text
Duration : 45 min 29 s
Bit rate : 2 b/s
Count of elements : 27
Stream size : 803 Bytes (0%)
Title : Latino Forzados
Language : Spanish
Default : Yes
Forced : Yes

Text #2
ID : 6
Format : UTF-8
Codec ID : S_TEXT/UTF8
Codec ID/Info : UTF-8 Plain Text
Duration : 45 min 29 s
Bit rate : 52 b/s
Count of elements : 602
Stream size : 17.7 KiB (0%)
Title : Latino Completos
Language : Spanish
Default : No
Forced : No

Text #3
ID : 7
Format : UTF-8
Codec ID : S_TEXT/UTF8
Codec ID/Info : UTF-8 Plain Text
Duration : 45 min 29 s
Bit rate : 1 b/s
Count of elements : 22
Stream size : 494 Bytes (0%)
Title : Castellano Forzados
Language : Spanish
Default : No
Forced : No

Text #4
ID : 8
Format : UTF-8
Codec ID : S_TEXT/UTF8
Codec ID/Info : UTF-8 Plain Text
Duration : 45 min 29 s
Bit rate : 50 b/s
Count of elements : 575
Stream size : 16.8 KiB (0%)
Title : Castellano Completos
Language : Spanish
Default : No
Forced : No

Text #5
ID : 9
Format : UTF-8
Codec ID : S_TEXT/UTF8
Codec ID/Info : UTF-8 Plain Text
Duration : 44 min 35 s
Bit rate : 91 b/s
Count of elements : 876
Stream size : 30.0 KiB (0%)
Title : English
Language : English
Default : No
Forced : No

Reportar Error Visitas: 194